[Login] or [Signup]
Login
Username:
Password:
[Signup]
[Recover Account]


Poll


You must be logged in to view polls



Torrent Details For "Alita Battle Angel (2019) 720p BluRay x264 [Dual Audio] [Hindi 5.1 + English 5.1] ESub.-.LHDm"

Alita Battle Angel (2019) 720p BluRay x264 [Dual Audio] [Hindi 5.1 + English 5.1] ESub.-.LHDm

Download this torrent | Magnet Download
Health:
Seeds: 0
Leechers: 0
Completed:
Last Checked: 11-07-2019 01:06:41
External Torrent
Update Stats


Poster
No poster


Details
Name:Alita Battle Angel (2019) 720p BluRay x264 [Dual Audio] [Hindi 5.1 + English 5.1] ESub.-.LHDm
Description:
 




Visit OUR Website & Bookmark us -  Click here



General
Unique ID                                : 15065100479587480117069931671140931614 (0xB556ECCD33E15326D54FB6A309B981E)
Complete name                            : D:\AAC\AAC\[LatestHDmovies.Club]-Alita Battle Angel (2019) 720p BluRay x264 [Hindi 5.1 + English 5.1] AAC ESub.mkv
Format                                   : Matroska
Format version                           : Version 4
File size                                : 1.11 GiB
Duration                                 : 2 h 1 min
Overall bit rate                         : 1 304 kb/s
Movie name                               : www.LatestHDmovies.Pw
Encoded date                             : UTC 2019-07-11 06:47:49
Writing application                      : mkvmerge v29.0.0 ('Like It Or Not') 32-bit
Writing library                          : libebml v1.3.6 + libmatroska v1.4.9

Video
ID                                       : 1
Format                                   : AVC
Format/Info                              : Advanced Video Codec
Format profile                           : [email protected]
Format settings                          : CABAC / 4 Ref Frames
Format settings, CABAC                   : Yes
Format settings, Reference frames        : 4 frames
Codec ID                                 : V_MPEG4/ISO/AVC
Duration                                 : 2 h 1 min
Bit rate                                 : 927 kb/s
Width                                    : 1 280 pixels
Height                                   : 540 pixels
Display aspect ratio                     : 2.40:1
Frame rate mode                          : Constant
Frame rate                               : 25.000 FPS
Color space                              : YUV
Chroma subsampling                       : 4:2:0
Bit depth                                : 8 bits
Scan type                                : Progressive
Bits/(Pixel*Frame)                       : 0.054
Stream size                              : 804 MiB (71%)
Title                                    : LatestHDmovies.Pw
Writing library                          : x264 core 157
Encoding settings                        : cabac=1 / ref=1 / deblock=1:0:0 / analyse=0x3:0x3 / me=dia / subme=1 / psy=1 / psy_rd=1.00:0.00 / mixed_ref=0 / me_range=16 / chroma_me=1 / trellis=0 / 8x8dct=1 / cqm=0 / deadzone=21,11 / fast_pskip=1 / chroma_qp_offset=0 / threads=17 / lookahead_threads=2 / sliced_threads=0 / nr=0 / decimate=1 / interlaced=0 / bluray_compat=0 / constrained_intra=0 / bframes=3 / b_pyramid=2 / b_adapt=1 / b_bias=0 / direct=1 / weightb=1 / open_gop=0 / weightp=1 / keyint=250 / keyint_min=25 / scenecut=40 / intra_refresh=0 / rc=abr / mbtree=0 / bitrate=927 / ratetol=1.0 / qcomp=0.60 / qpmin=0 / qpmax=69 / qpstep=4 / ip_ratio=1.40 / pb_ratio=1.30 / aq=1:1.00
Default                                  : Yes
Forced                                   : No

Audio #1
ID                                       : 2
Format                                   : AAC Main
Format/Info                              : Advanced Audio Codec
Codec ID                                 : A_AAC-1
Duration                                 : 2 h 1 min
Bit rate                                 : 192 kb/s
Channel(s)                               : 6 channels
Channel layout                           : C L R Ls Rs LFE
Sampling rate                            : 44.1 kHz
Frame rate                               : 43.066 FPS (1024 SPF)
Compression mode                         : Lossy
Delay relative to video                  : 22 ms
Stream size                              : 165 MiB (15%)
Title                                    : LatestHDmovies.Pw
Language                                 : Hindi
Default                                  : Yes
Forced                                   : Yes

Audio #2
ID                                       : 3
Format                                   : AAC Main
Format/Info                              : Advanced Audio Codec
Codec ID                                 : A_AAC-1
Duration                                 : 2 h 1 min
Bit rate                                 : 192 kb/s
Channel(s)                               : 6 channels
Channel layout                           : C L R Ls Rs LFE
Sampling rate                            : 44.1 kHz
Frame rate                               : 43.066 FPS (1024 SPF)
Compression mode                         : Lossy
Delay relative to video                  : 22 ms
Stream size                              : 165 MiB (15%)
Title                                    : LatestHDmovies.Pw
Language                                 : English
Default                                  : No
Forced                                   : No

Text
ID                                       : 4
Format                                   : UTF-8
Codec ID                                 : S_TEXT/UTF8
Codec ID/Info                            : UTF-8 Plain Text
Duration                                 : 1 h 55 min
Bit rate                                 : 45 b/s
Count of elements                        : 1585
Stream size                              : 38.4 KiB (0%)
Title                                    : LatestHDmovies.Pw
Language                                 : English
Default                                  : Yes
Forced                                   : No

Menu
00:00:00.000                             : en:Chapter 01
00:03:29.626                             : en:Chapter 02
00:07:52.680                             : en:Chapter 03
00:10:08.982                             : en:Chapter 04
00:13:07.702                             : en:Chapter 05
00:15:07.738                             : en:Chapter 06
00:18:05.539                             : en:Chapter 07
00:22:59.707                             : en:Chapter 08
00:25:36.321                             : en:Chapter 09
00:31:41.893                             : en:Chapter 10
00:33:30.209                             : en:Chapter 11
00:36:33.809                             : en:Chapter 12
00:38:31.885                             : en:Chapter 13
00:42:06.473                             : en:Chapter 14
00:45:59.204                             : en:Chapter 15
00:48:32.439                             : en:Chapter 16
00:52:57.995                             : en:Chapter 17
00:55:15.339                             : en:Chapter 18
01:00:40.746                             : en:Chapter 19
01:02:57.548                             : en:Chapter 20
01:05:17.770                             : en:Chapter 21
01:10:51.477                             : en:Chapter 22
01:13:38.268                             : en:Chapter 23
01:16:36.194                             : en:Chapter 24
01:18:53.205                             : en:Chapter 25
01:22:49.274                             : en:Chapter 26
01:24:56.316                             : en:Chapter 27
01:28:26.192                             : en:Chapter 28
01:33:19.527                             : en:Chapter 29
01:36:09.738                             : en:Chapter 30
01:41:55.667                             : en:Chapter 31
01:45:24.417                             : en:Chapter 32
01:48:17.464                             : en:Chapter 33
01:51:44.628                             : en:Chapter 34
01:54:44.640                             : en:Chapter 35
01:56:52.476                             : en:Chapter 36



 
 
 
 
 
 
 

Category:Movies > Hollywood Dub
Lang:Hindi
Total Size:1.11 GB
Info Hash:35624d28203359aa02f7f8f5d64e58c78e9f50da
Added By:LatestHDMovies
Date Added:11-07-2019 01:06:41
Views:10
Hits:2

Ratings:Not Yet Rated (Log in to rate it)


Tracker:
udp://tracker.coppersurfer.tk:6969/announce


File List: 


Comments

No comments still posted

Powered by 10 Hamsters v2-svn -|- Page Generated In 0.588197 secs.
-|- RSS FEED
Theme By: Nikkbu
Sitemap